хорошо
01.
хороший юмор
02.
хорошие вещи
03.
хорошая музыкa
04.
хорошие концерты
05.
хорошее кино
06.
хорошие книги
07.
хорошие фото
08.
хороший секс
09. хорошие игры
10. хорошая афиша
11. хорошие видеоролики
12. хорошие люди
 


[Re:up] - классика xorosho.com

 

ПО СТИЛЯМ

Опрос на сайте

Буду
Только при необходимости
Не буду
Я ничего не качаю


 

Sklerozini Muzzak - Eclettico (2010) / lounge, funk, electronic, indie, instrumental - скачать mp3, download

Хорошая Музыка  

Sklerozini Muzzak - Eclettico (2010) / lounge, funk, electronic, indie, instrumentalОт печали до радости. От фанка до шансона.
Микс по благоустройству разнообразия настроений.
Слушайте и повинуйтесь













The Tone – Relax
Serge Gainsbourg – Là-bas C'est Naturel (Faze Action Remix)
Noro Morales – Saona (Gilles Peterson & Simbad Remix)
Mario Biondi – Love Dreamer
Свитязь & Тартак – Ні, Я Не Ту Кохав
Basement Freaks – Gypsy Breaks (Breakbeat Junkie Vs DJP Remix)
Benji Hughes – Do You Think They Would Tell You
Illumination – Cry Me A River
Andrew Bird – Imitosis
Mina – Lo Foresti
Maria Gadu – Ne Me Quitte Pas
Piero Umiliani – Crepuscolo Sul Mare



Title :: Eclettico
Genre :: funk, electronic, jazzy, lounge, easy listening
Date Released :: 2010
Label :: Sklerozini Muzzak
Format :: Mix
Size :: 92 mb
Time :: 44.12 min
Quality :: mp3, 320 kbps

EX
ВК

 
 
Уважаемый посетитель, Вы зашли на сайт как незарегистрированный пользователь. Мы рекомендуем Вам зарегистрироваться либо зайти на сайт под своим именем.

Другие новости по теме:

  • Sklerozini Muzzak - оО (2016) disco | space disco | nu disco | electronic
  • Sklerozini Muzzak - DeeNBer (2011) drum`n`bass / liquid funk
  • Sklerozini Muzzak - Spider, Mam! (2014) funk / indie / disco-funk /
  • Sklerozini Muzzak - GoGol MoGol (2010) / electronic, dub, electro-jazz, dow ...
  • Sklerozini Muzzak - El Jopader (2012) funk / neoswing / electronic / latin


  •    
      #1 написал: Chkin14 (18 февраля 2010 07:49)  
    Нравится мне Sklerozini Muzzak. 5
      #2 написал: SPY007 (18 февраля 2010 07:58)  
    вот это даааа!))) наушники еще от предыдущего микса не остыли, а тут свеженький. Спасибо


    --------------------
      #3 написал: Dude74 (18 февраля 2010 09:20)  
    твердый пятак bully

    ...и мигом в плеер walkman


    --------------------
      #4 написал: kosatik (18 февраля 2010 10:52)  
    Супер, лейбл.


    --------------------
      #5 написал: dakostyaya (18 февраля 2010 11:14)  
    хорошее начало дня wink


    --------------------
      #6 написал: Terry (18 февраля 2010 13:03)  
    2 skleroz
    Да твоюж мать, склероз, сделай же ты для людей *.cue, почему дядька на electrosoul.ru для каждого сборника Trance In Motion делает нарезку, а ты ленишься?
      #7 написал: Garik (18 февраля 2010 13:16)  
    Terry, как по мне - не нужная штука в этом случае )
      #8 написал: ka_mar (18 февраля 2010 13:45)  
    Terry,
    в данном случае, ленитись Вы. Человек и так сделал сборник и выложил трек-лист, свою миссию для народы выполнил)))) Спасибо, Склероз, за такие подарки:)


    --------------------
      #9 написал: vaqqq (18 февраля 2010 16:41)  
    *.cue лишним не бывает) Но бузить по этому поводу не стоит)
      #10 написал: skleroz (18 февраля 2010 16:45)  
    Terry,

    слушай, зачем истерики - микс с куем, да?

    просто надо сначала скачать и посмотреть


    --------------------
      #11 написал: Garik (18 февраля 2010 17:38)  
    skleroz,
    по моему нет там ни куя, но лично мне это к примеру не мешает )
      #12 написал: skleroz (18 февраля 2010 17:40)  
    Как нет? Я же делал в куемейкере. Просто он в текстовом файле


    --------------------
      #13 написал: Garik (18 февраля 2010 17:47)  
    а ты переименуй его в .cue и открой )
      #14 написал: skleroz (18 февраля 2010 17:56)  
    да как-то не выходит. просто после точки сue поставить? все равно он куе шитом не становится. плохо я понимайт в системе компьютера


    --------------------
      #15 написал: maner22 (18 февраля 2010 19:22)  
    да куй с ним с куем то...)))
    sсleroz, спасибо за доставленную радость!
      #16 написал: vaqqq (18 февраля 2010 22:07)  
    Basement Freaks – Gypsy Breaks (Breakbeat Junkie Vs DJP Remix)
    класс!
      #17 написал: SlaVaaaaaa (18 февраля 2010 22:44)  
    СПАСИБО.
      #18 написал: Terry (18 февраля 2010 23:25)  
    Накуя вы тут бузу учидили, ну нет и шут с ним?
      #19 написал: skleroz (19 февраля 2010 01:41)  
    Terry,

    реально, я только из-за таких истерик могу без проблем делать без куя и дальше.
    не нравится - не качай. в чем проблема?
    я сказал - cue есть. только в текстовом файле


    --------------------
      #20 написал: upleft (19 февраля 2010 05:54)  
    skleroz дорогой друг, СПАСИБО ТЕБЕ ОГРОМНОЕ laughing


    --------------------
      #21 написал: skleroz (19 февраля 2010 07:33)  
    слушайте наздоровьице)


    --------------------
      #22 написал: Terry (19 февраля 2010 08:57)  
    Так в чем проблема, вложи его прям тут текстом, в архиве его не нашел.
      #23 написал: Garik (19 февраля 2010 11:30)  
    есть он в архиве:

    PERFORMER "Sklerozini Muzzak"
    TITLE "Eclettico"
    FILE "Sklerozini Muzzak - Eclettico" MP3
    TRACK 01 AUDIO
    PERFORMER "The Tone "
    TITLE "Relax"
    INDEX 01 00:00:00
    TRACK 02 AUDIO
    PERFORMER "Serge Gainsbourg "
    TITLE "L-bas C\'est Naturel (Faze Action Remix)"
    INDEX 01 00:03:33
    TRACK 03 AUDIO
    PERFORMER "Noro Morales "
    TITLE "Saona (Gilles Peterson & Simbad Remix)"
    INDEX 01 00:08:17
    TRACK 04 AUDIO
    PERFORMER "Mario Biondi "
    TITLE "Love Dreamer"
    INDEX 01 00:10:52
    TRACK 05 AUDIO
    PERFORMER "Свитязь & Тартак "
    TITLE "Ні, Я Не Ту Кохав"
    INDEX 01 00:15:49
    TRACK 06 AUDIO
    PERFORMER "Basement Freaks "
    TITLE "Gypsy Breaks (Breakbeat Junkie Vs DJP Remix)"
    INDEX 01 00:18:50
    TRACK 07 AUDIO
    PERFORMER "Benji Hughes "
    TITLE "Do You Think They Would Tell You"
    INDEX 01 00:23:24
    TRACK 08 AUDIO
    PERFORMER "Illumination"
    TITLE "Cry Me A River"
    INDEX 01 00:26:50
    TRACK 09 AUDIO
    PERFORMER "Andrew Bird "
    TITLE "Imitosis"
    INDEX 01 00:30:10
    TRACK 10 AUDIO
    PERFORMER "Mina"
    TITLE "Lo Foresti"
    INDEX 01 00:33:56
    TRACK 11 AUDIO
    PERFORMER "Maria Gadu "
    TITLE "Ne Me Quitte Pas"
    INDEX 01 00:37:44
    TRACK 12 AUDIO
    PERFORMER "Piero Umiliani "
    TITLE "Crepuscolo Sul Mare"
    INDEX 01 00:41:32
      #24 написал: Kam4atko (20 февраля 2010 03:07)  
    Terry,
    микс с куем, нужно было только поменять расширение текстового файла на .cue. и что за наезды? если очень нужно - всегда можно самому сделать, дело двух минут.

    по поводу куя - есть небольшая ошибочка (в формате времени), например, не 00:03:33, а 03:33:00 и т.д. по всем трекам. исправить в блокноте - легко. если лень - можно скачать исправленный cue-файл отсюда.

    Skleroz
    микс прекрасный, как всегда, спасибо же!
      #25 написал: solo-solo (20 февраля 2010 03:15)  
    Вот кино смешное. Только не превращайте его в сериал.
      #26 написал: skleroz (20 февраля 2010 09:42)  
    это драма с элементами ужасов


    --------------------
      #27 написал: peerser (21 февраля 2010 00:42)  
    У вас всё-таки замечательный вкус, поздравляю.
    super
    PS Переслушал в автобусе во время поездки Illusion и Mayak. Ещё раз спасибо и за них
      #28 написал: skleroz (21 февраля 2010 02:11)  
    peerser,

    спасибо. насчет вкусов многие, думаю, могут поспорить)

    а в автобусах у вас судя по всему, долгий путь)


    --------------------
      #29 написал: Terry (21 февраля 2010 18:17)  
    Тот просто файл который как говорите поменять на расширение куе, я делал изначально, не дурак не первый раз встречаюсь с подобным, но потом треки эти режутся у меня по 3 секунды и последний 40 минут остается, то есть по любому ошибка есть в файле. Поэтому и прошу нормальную кую.
      #30 написал: skleroz (21 февраля 2010 23:01)  
    Terry,

    мне нечего сказать
    читайте коменты


    --------------------
      Информация  
    Посетители, находящиеся в группе Гости, не могут оставлять комментарии в данной новости.

    Вход на сайт
    Логин
    Пароль
     






    Добавить релиз


    Последние комментарии
    (Xorosho!Live)


    Мы на других сайтах:


    facebook