Сайт хорошей музыки
   Вы просматриваете: Хорошо.com » Хорошая Музыка » Gwon - JRNY5 Mixtape / Downtempo, Funk, Instrumental Hip Hop

Gwon - JRNY5 Mixtape / Downtempo, Funk, Instrumental Hip Hop

опубликовал: MLook, добавлено: 30-03-2014, 09:35
 
Gwon - JRNY5 Mixtape / Downtempo, Funk, Instrumental Hip Hop


Потихонечку собираю музыку для неспешных покатушек на летнем авто, штудирую содержание своих музыкальных закромов. Вот наткнулся на один замечательный микстейп, авторства человека со странным псевдонимом Gwon, про которого в сети нет никакой информации, разве что гражданин Gwon проживает в канадском городе Ванкувер, если верить учетке soundcloud, еще нашел прошлогодний EP с его битами на bandcamp. Не помню, откуда у меня на диске взялся этот микстейп, да еще и в WAV, но он шикарен и великолепен, засим спешу поделиться.

A mix of downtempo funk & instrumentals, re-edited & rearranged by GWON.

Track list:
01. Herbaliser - Bring It [Re-edit]
02. Beatnuts - Untitled [Instrumental Edit]
03. Millerton & GWON - Trust [Instrumental Edit]
04. Metal Fingers - Licorice [Instrumental Edit]
05. Cander - Bird Journy [Re-edit]
06. KRS One - Harmony & Understanding [Edit]
07. Constrobuz - Chat Shit Get Banged
08. TeV95 - Don't Know Why
09. Hydrophonics - Despertar [Edit]
10. Constrobuz - Jermaine Dupris Has No Father
11. Mix Master Mike - Rebel Enforcer [Re-edit]
12. Skeewiff - Jus' Do It [Edit]
13. Controller 7 - Wandering Song
14. Reezm - One Horse Town
15. The Sand Dollars - Get Thy Bearings [Edit]
16. K-Def - The Witch [Re-edit]
17. Sixtoo - Chainsaw Breakfast [Re-edit]
18. RJD2 - Kill Em All (Remix)
19. Pack FM - Flux Capacitor [Instrumental Edit]
20. vs. Tosca - Fuck Dub Beats
21. Lex Boogie - Monkey Jazz Space Hustle [Edit]
22. Cage - Peeranoia Inst. [Edit]
23. DJ Format - A Little Bit of Soul [Edit]
24. Immortal Technique - You Never Know [Edit]
25. Cander & Jimmy J - Daymares On Laptops (G-Mix)
26. Danny Brown - Thank God [Edit]
27. Antipop Consortium & DJ Vadim - Sensory Deprivation [Edit]
28. Meaty Ogre - Je Ne Joue (Part 2) [Edit]
29. Beatnuts - At Night [Instrumental Edit]
30. Family Tree - Blow The Spot (G-Mix)
31. Tosca - Bassfuck [Re-edit]
32. Kno - Caved In [Instrumental Edit]
33. K-Def - Rough Silver Coin [Re-edit]
34. EP - Rhyming [Instrumental Edit]
35. Bugseed - Tear Loose
36. Lord Finesse - True and Livin [Re-edit]

прослушка и другие микстейпы есть на soundcloud

Яндекс WAV 620Mb
Яндекс mp3 320kbps 137Mb
  Сообщить об ошибке    Комментариев оставлено: (6)    Просмотров: 2 518   
+10

Другие новости по теме:

Уважаемый посетитель, Вы зашли на сайт как незарегистрированный пользователь.
Мы рекомендуем Вам зарегистрироваться либо войти на сайт под своим именем.

Комментарии к новости:

ribiyglaz, Группа: Посетители, 30 марта 2014 14:11
   
давай ещё!!!
,
Terry, Группа: Хороший релизёр, 30 марта 2014 19:13
   
Почему КУИ нет? Я давно отрицательно отношусь, к разного рода литым миксам одним файлом на 70 минут, а если мне не нравится песня, как мне ее мотать что ли до другой?
,
nehrenase, Группа: Посетители, 6 апреля 2014 01:12
   
Я музон одним файлом не качаю.....это как навязывание получается..
,
Vinny Pooh, Группа: Посетители, 14 апреля 2014 01:34
   
Давно не находил такой приятной музыки. У самого есть такая музыка которая непонятно откуда взялась и подходит для авто мото и вело прогулок и в интернете не найти. Почитал негативные отзывы и не ошибся ))) Спасибо. Рой ещё свои закрома один ожидающий есть!
,
akragant, Группа: Посетители, 23 апреля 2014 18:33
   
Спасибо! Автор порадовал: это -музыка! Ждем еще.
,
BadBajo, Группа: Посетители, 14 января 2015 13:15
   
КУЙ ВАМ )))

REM GENRE "Trip-hop"
REM DATE 2014
REM LABEL ""
REM COMMENT ""
TITLE "JRNY5 Mixtape"
PERFORMER "Gwon"
FILE "Gwon - JRNY5 Mixtape.wav" WAVE
TRACK 01 AUDIO
TITLE "Herbaliser - Bring It (Re-edit)"
INDEX 01 00:00:00
TRACK 02 AUDIO
TITLE "Beatnuts - Untitled (Instrumental Edit)"
INDEX 01 01:53:74
TRACK 03 AUDIO
TITLE "Millerton & GWON - Trust (Instrumental Edit)"
INDEX 01 03:20:60
TRACK 04 AUDIO
TITLE "Metal Fingers - Licorice (Instrumental Edit)"
INDEX 01 04:53:53
TRACK 05 AUDIO
TITLE "Cander - Bird Journy (Re-edit)"
INDEX 01 06:50:30
TRACK 06 AUDIO
TITLE "KRS One - Harmony & Understanding (Edit)"
INDEX 01 08:54:51
TRACK 07 AUDIO
TITLE "Constrobuz - Chat Shit Get Banged"
INDEX 01 10:30:36
TRACK 08 AUDIO
TITLE "TeV95 - Don't Know Why"
INDEX 01 12:18:07
TRACK 09 AUDIO
TITLE "Hydrophonics - Despertar (Edit)"
INDEX 01 14:16:72
TRACK 10 AUDIO
TITLE "Constrobuz - Jermaine Dupris Has No Father"
INDEX 01 16:25:59
TRACK 11 AUDIO
TITLE "Mix Master Mike - Rebel Enforcer (Re-edit)"
INDEX 01 18:18:27
TRACK 12 AUDIO
TITLE "Skeewiff - Jus' Do It (Edit)"
INDEX 01 19:55:00
TRACK 13 AUDIO
TITLE "Controller 7 - Wandering Song"
INDEX 01 22:03:50
TRACK 14 AUDIO
TITLE "Reezm - One Horse Town"
INDEX 01 23:57:63
TRACK 15 AUDIO
TITLE "The Sand Dollars - Get Thy Bearings (Edit)"
INDEX 01 25:26:72
TRACK 16 AUDIO
TITLE "K-Def - The Witch (Re-edit)"
INDEX 01 27:13:12
TRACK 17 AUDIO
TITLE "Sixtoo - Chainsaw Breakfast (Re-edit)"
INDEX 01 28:20:23
TRACK 18 AUDIO
TITLE "RJD2 - Kill Em All (Remix)"
INDEX 01 29:27:70
TRACK 19 AUDIO
TITLE "Pack FM - Flux Capacitor (Instrumental Edit)"
INDEX 01 30:57:46
TRACK 20 AUDIO
TITLE "Lex Boogie - Monkey Jazz Space Hustle (Edit)"
INDEX 01 32:53:58
TRACK 21 AUDIO
TITLE "Cage - Peeranoia Inst. (Edit)"
INDEX 01 34:03:62
TRACK 22 AUDIO
TITLE "DJ Format - A Little Bit of Soul (Edit)"
INDEX 01 35:33:13
TRACK 23 AUDIO
TITLE "Immortal Technique - You Never Know (Edit)"
INDEX 01 37:50:03
TRACK 24 AUDIO
TITLE "Cander & Jimmy J - Daymares On Laptops (G-Mix)"
INDEX 01 39:59:28
TRACK 25 AUDIO
TITLE "Danny Brown - Thank God (Edit)"
INDEX 01 41:36:48
TRACK 26 AUDIO
TITLE "Meaty Ogre - Je Ne Joue (Part 2)"
INDEX 01 43:07:42
TRACK 27 AUDIO
TITLE "Beatnuts - At Night (Instrumental Edit)"
INDEX 01 44:49:54
TRACK 28 AUDIO
TITLE "Family Tree - Blow The Spot (G-Mix)"
INDEX 01 46:20:54
TRACK 29 AUDIO
TITLE "Tosca - Bassfuck (Re-edit)"
INDEX 01 47:50:51
TRACK 30 AUDIO
TITLE "Kno - Caved In (Instrumental Edit)"
INDEX 01 49:22:39
TRACK 31 AUDIO
TITLE "K-Def - Rough Silver Coin (Re-edit)"
INDEX 01 51:38:59
TRACK 32 AUDIO
TITLE "EP - Rhyming (Instrumental Edit)"
INDEX 01 53:09:33
TRACK 33 AUDIO
TITLE "Bugseed - Tear Loose"
INDEX 01 55:02:11
TRACK 34 AUDIO
TITLE "Lord Finesse - True and Livin (Re-edit)"
INDEX 01 56:53:33
,

Информация

Посетители, находящиеся в группе Гости, не могут оставлять комментарии к данной публикации.
управление аккаунтом
Профиль пользователя
 , вы вошли как гость


Если вы на сайте впервые, то вы можете зарегистрироваться!

Вы забыли пароль?
самые интересные новости
Популярные новости
Наши опросы
Облако тэгов
Enjoy
Материалы данного ресурса принадлежат пользователям и предназначены только для ознакомления.


хорошая музыка хороший юмор хорошее кино хорошие книги хорошие фото хорошие ролики хорошие игры хороший секс хорошие концерты хорошая афиша
Copyright © 2020 DLE , SoftNews. All Rights Reserved.
Дизайн и верстка — Rock Star